<?xml version="1.0" standalone="no"?>
<!DOCTYPE svg PUBLIC "-//W3C//DTD SVG 1.1//EN" "http://www.w3.org/Graphics/SVG/1.1/DTD/svg11.dtd" >
<svg xmlns="http://www.w3.org/2000/svg">
<metadata>
This is a custom SVG webfont generated by Font Squirrel.
Copyright   : Copyright c Mark Simonson 2005 All rights reserved
Designer    : Mark Simonson
Foundry URL : httpwwwmarksimonsoncom
</metadata>
<defs>
<font id="ProximaNovaCondensedSemibold" horiz-adv-x="1101" >
<font-face units-per-em="2048" ascent="1618" descent="-430" />
<missing-glyph horiz-adv-x="432" />
<glyph unicode=" "  horiz-adv-x="432" />
<glyph unicode="&#x09;" horiz-adv-x="432" />
<glyph unicode="&#xa0;" horiz-adv-x="432" />
<glyph unicode="!" horiz-adv-x="495" d="M111 117q0 55 39.5 95t97 40t97.5 -40t40 -95q0 -57 -40 -97t-97.5 -40t-97 40t-39.5 97zM123 1366h250l-37 -954h-176z" />
<glyph unicode="&#x22;" horiz-adv-x="763" d="M100 1272q0 47 35 80.5t82 33.5t81 -33.5t34 -80.5l-68 -463h-94q-70 428 -70 463zM432 1272q0 47 34 80.5t83 33.5q47 0 81 -33.5t34 -80.5l-70 -463h-92q-70 428 -70 463z" />
<glyph unicode="#" horiz-adv-x="1073" d="M37 360l37 136h170l104 374h-170l35 134h174l100 362h158l-102 -362h172l100 362h156l-103 -362h170l-34 -134h-173l-106 -374h176l-37 -136h-178l-102 -360h-156l104 360h-174l-100 -360h-158l103 360h-166zM399 496h168l109 374h-172z" />
<glyph unicode="$" horiz-adv-x="1001" d="M51 149l115 177q109 -127 272 -148v422q-80 35 -127 61.5t-105.5 74.5t-86 114.5t-27.5 155.5q0 145 94.5 248.5t251.5 127.5v191h156v-189q190 -20 317 -145l-108 -172q-84 88 -209 111v-383q78 -35 126 -64t105.5 -79t85 -118.5t27.5 -156.5q0 -152 -89 -259.5 t-255 -133.5v-189h-156v182q-240 18 -387 172zM324 1020q0 -88 114 -154v307q-114 -36 -114 -153zM594 195q113 43 113 165q0 96 -113 166v-331z" />
<glyph unicode="%" horiz-adv-x="1357" d="M53 1047q0 147 83 243t216 96t216 -96t83 -243q0 -145 -83 -241.5t-216 -96.5t-216 96.5t-83 241.5zM199 1046.5q0 -92.5 42 -149.5t111 -57q68 0 110 57t42 149.5t-42 151.5t-110 59q-70 0 -111.5 -59t-41.5 -151.5zM264 0l719 1366h117l-721 -1366h-115zM707 311 q0 147 82.5 244.5t216 97.5t216.5 -97t83 -245q0 -145 -83 -240.5t-216.5 -95.5t-216 95.5t-82.5 240.5zM852 311q0 -92 42 -149.5t111.5 -57.5t111.5 57.5t42 149.5q0 94 -42 152.5t-111.5 58.5t-111.5 -58.5t-42 -152.5z" />
<glyph unicode="&#x26;" d="M61 356q0 141 66 232.5t184 171.5q-86 176 -86 297q0 143 89 236t225 93q121 0 203.5 -77.5t82.5 -202.5q0 -72 -21.5 -129t-69.5 -105.5t-85 -76t-106 -72.5q45 -78 106 -164l107 -151q59 123 100 276l166 -76q-68 -205 -156 -346l217 -262h-243q-74 90 -90 113 q-141 -137 -322 -138q-160 0 -263.5 100.5t-103.5 280.5zM272 371q0 -104 55.5 -168t133.5 -64q96 0 188 103q-102 133 -139 190l-119 184q-119 -104 -119 -245zM420 1055q0 -78 51 -195q86 55 131 109.5t45 128.5q0 66 -29.5 101.5t-74.5 35.5q-57 0 -90 -47t-33 -133z" />
<glyph unicode="'" horiz-adv-x="432" d="M100 1272q0 47 35 80.5t82 33.5t81 -33.5t34 -80.5l-68 -463h-94q-70 428 -70 463z" />
<glyph unicode="(" horiz-adv-x="526" d="M92 497.5q0 499.5 258 905.5l137 -80q-174 -399 -174 -825t174 -824l-137 -82q-258 406 -258 905.5z" />
<glyph unicode=")" horiz-adv-x="526" d="M39 -326l135 -82q260 408 260 905.5t-260 905.5l-135 -80q174 -408 174 -825q0 -421 -174 -824z" />
<glyph unicode="*" horiz-adv-x="675" d="M45 977l205 104l-205 105l55 94l193 -125l-10 231h110l-12 -231l194 125l56 -94l-205 -105l205 -104l-56 -96l-194 125l12 -230h-110l10 230l-193 -125z" />
<glyph unicode="+" horiz-adv-x="903" d="M59 625v133h320v350h145v-350h320v-133h-320v-367h-145v367h-320z" />
<glyph unicode="," horiz-adv-x="497" d="M111 118.5q0 55.5 38.5 94.5t94.5 39q63 0 107 -48t44 -132q0 -100 -51 -191.5t-135 -148.5l-92 75q49 29 92 85.5t51 105.5q-8 -4 -33 -4q-49 0 -82.5 34.5t-33.5 90z" />
<glyph unicode="-" horiz-adv-x="552" d="M61 408v176h431v-176h-431z" />
<glyph unicode="." horiz-adv-x="495" d="M111 117q0 55 41 95t96 40q57 0 97 -40t40 -95q0 -57 -40 -97t-97 -40q-55 0 -96 40t-41 97z" />
<glyph unicode="/" horiz-adv-x="542" d="M0 -41l393 1448h150l-393 -1448h-150z" />
<glyph unicode="0" horiz-adv-x="1081" d="M80 682q0 182 44 335.5t151.5 261t265 107.5t266 -107.5t153 -261t44.5 -335.5q0 -133 -27 -255t-79 -225.5t-144 -165t-213 -61.5q-119 0 -211 61.5t-144.5 165t-79 225.5t-26.5 255zM311 682q0 -506 230 -506q231 0 231 506q0 504 -231 504q-230 0 -230 -504z" />
<glyph unicode="1" horiz-adv-x="720" d="M23 991l368 375h199v-1366h-228v1073l-206 -219z" />
<glyph unicode="2" horiz-adv-x="1044" d="M74 1165q160 221 434 221q184 0 305 -107.5t121 -289.5q0 -154 -108.5 -313.5t-399.5 -476.5h514v-199h-844v184q391 401 500 539.5t109 263.5q0 90 -58.5 144.5t-142.5 54.5q-180 0 -291 -162z" />
<glyph unicode="3" horiz-adv-x="1019" d="M49 199l141 139q111 -162 293 -162q113 0 170.5 58.5t57.5 158.5q0 205 -242 205q-76 0 -117 -4v205q20 -2 113 -2q102 0 164.5 48t62.5 142q0 96 -58.5 147.5t-156.5 51.5q-166 0 -276 -148l-135 129q150 219 428 219q193 0 307 -95t114 -271q0 -119 -73.5 -206 t-177.5 -107q106 -16 189 -107.5t83 -226.5q0 -178 -120 -288t-324 -110q-147 0 -263.5 63t-179.5 161z" />
<glyph unicode="4" horiz-adv-x="1009" d="M45 315v195l487 856h289v-850h144v-201h-144v-315h-225v315h-551zM250 516h346v612z" />
<glyph unicode="5" horiz-adv-x="1052" d="M92 195l141 143q104 -162 287 -162q100 0 162.5 74t62.5 178q0 119 -57 185.5t-158 66.5q-137 0 -235 -119l-166 47v758h770v-199h-543v-407q94 117 252 117t262.5 -118t104.5 -325q0 -203 -124 -331t-325 -128q-284 1 -434 220z" />
<glyph unicode="6" horiz-adv-x="1050" d="M80 682q0 307 132 505.5t380 198.5q215 0 336 -157l-115 -164q-84 121 -219 121t-210 -138.5t-75 -328.5v-33q39 78 120 132t177 54q160 0 266.5 -115.5t106.5 -324.5q0 -195 -117 -326t-307 -131q-102 0 -183 38t-135.5 102.5t-90 155.5t-51 192.5t-15.5 218.5zM311 508 q4 -59 16.5 -112.5t37 -105.5t70.5 -83t108 -31q98 0 152.5 75t54.5 173q0 129 -59.5 191.5t-151.5 62.5q-70 0 -129.5 -48t-98.5 -122z" />
<glyph unicode="7" horiz-adv-x="921" d="M47 1167v199h832v-158l-435 -1208h-245l424 1167h-576z" />
<glyph unicode="8" horiz-adv-x="1042" d="M78 344q0 123 77.5 220.5t190.5 140.5q-106 39 -178 123.5t-72 205.5q0 172 125 262t301 90q174 0 299 -90t125 -262q0 -121 -70.5 -206t-177.5 -123q111 -43 190 -140.5t79 -220.5q0 -172 -123 -270.5t-322 -98.5q-201 0 -322.5 98.5t-121.5 270.5zM305 375 q0 -92 61.5 -145.5t155.5 -53.5q92 0 153.5 53.5t61.5 145.5q0 100 -76.5 164.5t-138.5 72.5q-63 -8 -140 -72.5t-77 -164.5zM324 997q0 -90 66.5 -143t131.5 -68q63 14 130 67.5t67 143.5q0 86 -54.5 137.5t-142.5 51.5q-90 0 -144 -51.5t-54 -137.5z" />
<glyph unicode="9" horiz-adv-x="1050" d="M72 932q0 195 116.5 326t307.5 131q102 0 183 -38t135 -102.5t90 -156t51.5 -192.5t15.5 -218q0 -307 -132 -506t-380 -199q-215 0 -336 158l115 164q84 -121 219 -121q137 0 210.5 138.5t73.5 328.5v33q-39 -78 -119.5 -132t-177.5 -54q-160 0 -266 115.5t-106 324.5z M301 940q0 -129 59.5 -191.5t151.5 -62.5q137 0 227 170q-4 82 -24.5 150.5t-72.5 125t-132 56.5q-100 0 -154.5 -75t-54.5 -173z" />
<glyph unicode=":" horiz-adv-x="487" d="M111 117q0 55 41 95t96 40q57 0 97 -40t40 -95q0 -57 -40 -97t-97 -40q-55 0 -96 40t-41 97zM111 866.5q0 55.5 41 96.5t96 41q57 0 97 -41t40 -96.5t-40 -96.5t-97 -41q-55 0 -96 41t-41 96.5z" />
<glyph unicode=";" horiz-adv-x="495" d="M111 123q0 55 38.5 95t94.5 40q63 0 107 -48t44 -132q0 -102 -50 -192.5t-136 -149.5l-92 76q51 31 93 86t50 106q-8 -4 -33 -4q-49 0 -82.5 35t-33.5 88zM111 866q0 57 41 97.5t96 40.5q57 0 97 -40t40 -98q0 -55 -40 -96t-97 -41q-55 0 -96 41t-41 96z" />
<glyph unicode="&#x3c;" horiz-adv-x="903" d="M59 612v146l785 360v-157l-627 -277l627 -272v-158z" />
<glyph unicode="=" horiz-adv-x="903" d="M59 422v133h785v-133h-785zM59 813v133h785v-133h-785z" />
<glyph unicode="&#x3e;" horiz-adv-x="903" d="M59 254v158l629 272l-629 277v157l785 -360v-146z" />
<glyph unicode="?" horiz-adv-x="798" d="M45 1227q137 160 356 159q160 0 257.5 -86t97.5 -219q0 -78 -31 -142.5t-76 -109.5l-90 -86q-45 -41 -75.5 -88t-30.5 -98q0 -55 41 -96l-170 -64q-63 70 -64 176q0 82 42 148.5t91 105.5t91 95.5t42 118t-43 104.5t-121 43q-121 0 -204 -105zM260 117q0 55 41 95t96 40 q57 0 97.5 -40t40.5 -95q0 -57 -40 -97t-98 -40q-55 0 -96 40t-41 97z" />
<glyph unicode="@" horiz-adv-x="1439" d="M72 471q0 217 104.5 410.5t279.5 309.5t373 116q240 0 389.5 -159t149.5 -409q0 -246 -108.5 -405.5t-245.5 -159.5q-76 0 -124 42t-56 108l-3 14q-113 -164 -268 -164q-113 0 -183.5 78t-70.5 221q0 213 127 381t301 168q150 0 205 -143l23 110h182l-113 -530 q-4 -21 -4 -52q0 -91 72 -92q61 0 123.5 115t62.5 309q0 225 -126 359.5t-337 134.5q-272 0 -473.5 -232.5t-201.5 -527.5q0 -238 136 -391.5t359 -153.5q170 0 336 115l39 -57q-184 -129 -385 -129q-252 0 -407.5 171t-155.5 443zM500 494q0 -80 35.5 -126t103.5 -46 q119 0 215 149l59 281q-14 49 -50 85.5t-91 36.5q-117 0 -194.5 -120.5t-77.5 -259.5z" />
<glyph unicode="A" d="M6 0l410 1366h270l410 -1366h-244l-76 270h-450l-76 -270h-244zM371 471h360l-180 653z" />
<glyph unicode="B" horiz-adv-x="1107" d="M131 0v1366h518q168 0 260 -98.5t92 -249.5q0 -125 -60 -207t-155 -106q100 -14 169 -111.5t69 -224.5q0 -166 -92 -267.5t-268 -101.5h-533zM356 199h252q88 0 135.5 52t47.5 148q0 86 -47.5 142.5t-135.5 56.5h-252v-399zM356 797h242q84 0 127 50t43 134t-43 135 t-127 51h-242v-370z" />
<glyph unicode="C" horiz-adv-x="1124" d="M80 682q0 313 152.5 510t406.5 197q291 0 434 -302l-186 -83q-84 184 -248 184q-150 0 -239 -141.5t-89 -364.5t89 -364.5t239 -141.5q86 0 149.5 55.5t98.5 145.5l188 -82q-143 -319 -436 -320q-254 0 -406.5 197t-152.5 510z" />
<glyph unicode="D" horiz-adv-x="1196" d="M131 0v1366h408q270 0 423.5 -190.5t153.5 -493.5q0 -305 -151.5 -493.5t-423.5 -188.5h-410zM356 199h183q166 0 256 133t90 350q0 223 -89 354t-257 131h-183v-968z" />
<glyph unicode="E" horiz-adv-x="968" d="M131 0v1366h750v-199h-525v-370h510v-199h-510v-399h525v-199h-750z" />
<glyph unicode="F" horiz-adv-x="950" d="M131 0v1366h750v-199h-525v-370h510v-199h-510v-598h-225z" />
<glyph unicode="G" horiz-adv-x="1183" d="M80 682q0 317 153.5 512t405.5 195q295 0 436 -291l-182 -88q-90 178 -254 178q-147 0 -237.5 -136.5t-90.5 -369.5q0 -231 90.5 -368.5t237.5 -137.5q145 0 231 98v254h-290v199h503v-543q-172 -209 -444 -209q-252 0 -405.5 195t-153.5 512z" />
<glyph unicode="H" horiz-adv-x="1218" d="M131 0v1366h225v-563h506v563h225v-1366h-225v602h-506v-602h-225z" />
<glyph unicode="I" horiz-adv-x="487" d="M131 0v1366h225v-1366h-225z" />
<glyph unicode="J" horiz-adv-x="839" d="M16 88l88 178q76 -90 183 -90q92 0 144 55.5t52 153.5v981h228v-989q0 -201 -109.5 -301.5t-294.5 -100.5q-178 0 -291 113z" />
<glyph unicode="K" horiz-adv-x="1097" d="M131 0v1366h225v-657l428 657h265l-447 -645l481 -721h-268l-352 563l-107 -157v-406h-225z" />
<glyph unicode="L" horiz-adv-x="878" d="M123 0v1366h225v-1167h477v-199h-702z" />
<glyph unicode="M" horiz-adv-x="1462" d="M131 0v1366h305l295 -889l297 889h303v-1366h-223v999l-334 -999h-86l-332 999v-999h-225z" />
<glyph unicode="N" horiz-adv-x="1216" d="M131 0v1366h229l498 -895v895h227v-1366h-217l-512 922v-922h-225z" />
<glyph unicode="O" horiz-adv-x="1259" d="M80 682q0 309 147.5 508t401.5 199q256 0 403.5 -199t147.5 -508t-147.5 -508t-403.5 -199q-254 0 -401.5 199t-147.5 508zM311 682q0 -221 84 -363.5t233.5 -142.5t233.5 142.5t84 363.5q0 223 -84 364.5t-233.5 141.5t-233.5 -141.5t-84 -364.5z" />
<glyph unicode="P" horiz-adv-x="1054" d="M131 0v1366h465q195 0 300 -122t105 -302q0 -182 -106.5 -303t-298.5 -121h-240v-518h-225zM356 717h213q92 0 146.5 61.5t54.5 163.5q0 100 -54 162.5t-147 62.5h-213v-450z" />
<glyph unicode="Q" horiz-adv-x="1259" d="M80 682q0 309 147.5 508t401.5 199q256 0 403.5 -199t147.5 -508q0 -362 -193 -559l62 -98l-158 -97l-57 88q-94 -41 -205 -41q-254 0 -401.5 199t-147.5 508zM311 682q0 -221 84 -363.5t234 -142.5q47 0 92 17l-150 237l160 98l131 -209q84 137 84 363q0 223 -84 364.5 t-233.5 141.5t-233.5 -141.5t-84 -364.5z" />
<glyph unicode="R" horiz-adv-x="1095" d="M131 0v1366h471q178 0 290 -116.5t112 -305.5q0 -164 -76 -262t-180 -127l266 -555h-254l-234 516h-170v-516h-225zM356 717h213q92 0 146.5 61.5t54.5 163.5t-54 163.5t-147 61.5h-213v-450z" />
<glyph unicode="S" horiz-adv-x="999" d="M45 150l115 176q131 -150 325 -150q104 0 159.5 53.5t55.5 130.5q0 76 -63.5 129.5t-153.5 90t-180 82t-153.5 132.5t-63.5 212q0 164 118 273.5t308 109.5q244 0 393 -150l-108 -172q-117 119 -291 119q-84 0 -136.5 -46t-52.5 -120q0 -68 63.5 -117t154 -87t180.5 -85 t153.5 -137t63.5 -217q0 -174 -116 -288t-329 -114q-274 1 -442 175z" />
<glyph unicode="T" horiz-adv-x="950" d="M47 1167v199h854v-199h-313v-1167h-226v1167h-315z" />
<glyph unicode="U" horiz-adv-x="1214" d="M131 461v905h227v-907q0 -137 64.5 -210t185.5 -73q119 0 183.5 73t64.5 210v907h227v-905q0 -231 -127 -358.5t-348 -127.5q-223 0 -350 127.5t-127 358.5z" />
<glyph unicode="V" d="M6 1366h244l301 -1096l301 1096h244l-410 -1366h-270z" />
<glyph unicode="W" horiz-adv-x="1529" d="M20 1366h244l197 -1018l213 1018h182l213 -1018l197 1018h243l-309 -1366h-237l-197 979l-199 -979h-235z" />
<glyph unicode="X" d="M6 0l406 698l-383 668h262l260 -492l260 492h262l-383 -666l408 -700h-262l-285 518l-285 -518h-260z" />
<glyph unicode="Y" horiz-adv-x="1073" d="M0 1366h250l287 -584l286 584h250l-424 -797v-569h-225v569z" />
<glyph unicode="Z" horiz-adv-x="976" d="M78 0v188l532 979h-532v199h807v-184l-537 -983h551v-199h-821z" />
<glyph unicode="[" horiz-adv-x="468" d="M80 -389v1778h354v-142h-203v-1495h203v-141h-354z" />
<glyph unicode="\" horiz-adv-x="542" d="M0 1407h152l393 -1448h-152z" />
<glyph unicode="]" horiz-adv-x="468" d="M35 -248h203v1495h-203v142h354v-1778h-354v141z" />
<glyph unicode="^" horiz-adv-x="790" d="M39 682l280 684h152l281 -684h-156l-201 530l-202 -530h-154z" />
<glyph unicode="_" horiz-adv-x="864" d="M-6 -82h876v-141h-876v141z" />
<glyph unicode="`" horiz-adv-x="415" d="M0 1434h188l228 -295h-140z" />
<glyph unicode="&#x2cb;" horiz-adv-x="415" d="M0 1434h188l228 -295h-140z" />
<glyph unicode="a" horiz-adv-x="960" d="M70 303q0 154 88 239t215 85q178 0 262 -123v147q0 90 -50 139.5t-143 49.5q-135 0 -247 -115l-80 143q143 145 364 146q166 0 263.5 -82t97.5 -254v-678h-205v104q-90 -129 -262 -129q-125 0 -214 89t-89 239zM274 301q0 -80 47.5 -132t124.5 -52q133 0 189 102v162 q-55 104 -189 104q-78 0 -125 -52t-47 -132z" />
<glyph unicode="b" horiz-adv-x="1013" d="M121 0v1366h203v-510q45 78 112.5 118t143.5 40q168 0 265 -141.5t97 -378.5q0 -240 -97 -379.5t-265 -139.5q-162 0 -256 156v-131h-203zM324 291q29 -57 83 -96t113 -39q102 0 157.5 94t55.5 244q0 152 -55 246t-158 94q-57 0 -112.5 -40t-83.5 -98v-405z" />
<glyph unicode="c" horiz-adv-x="854" d="M72 496q0 225 119.5 371.5t314.5 146.5q197 0 303 -133l-102 -140q-72 92 -179 93q-113 0 -179 -96.5t-66 -242t66.5 -242.5t178.5 -97q104 0 179 92l102 -139q-104 -133 -303 -134q-195 0 -314.5 147t-119.5 374z" />
<glyph unicode="d" horiz-adv-x="1013" d="M72 494q0 236 98 378t264 142q168 0 256 -158v510h203v-1366h-203v131q-94 -156 -256 -156q-168 0 -265 139.5t-97 379.5zM283 494q0 -150 54 -244t159 -94q59 0 113.5 38.5t80.5 96.5v407q-27 57 -81 96.5t-113 39.5q-104 0 -158.5 -94t-54.5 -246z" />
<glyph unicode="e" horiz-adv-x="974" d="M72 496q0 221 116.5 369.5t309.5 148.5q197 0 304 -146.5t107 -378.5v-61h-630q6 -127 73.5 -206t186.5 -79q135 0 225 107l98 -123q-135 -152 -344 -152q-203 0 -324.5 145t-121.5 376zM276 573h437q-2 109 -55.5 191t-161.5 82q-106 0 -161 -83.5t-59 -189.5z" />
<glyph unicode="f" horiz-adv-x="559" d="M33 811v178h129v90q0 145 73.5 226t204.5 81q127 0 197 -69l-68 -146q-37 39 -92 39q-53 0 -82.5 -34.5t-29.5 -96.5v-90h163v-178h-163v-811h-203v811h-129z" />
<glyph unicode="g" horiz-adv-x="1013" d="M72 506q0 236 97 372t265 136q166 0 256 -158v133h203v-973q0 -117 -36 -200.5t-98.5 -129.5t-135 -66.5t-158.5 -20.5q-217 0 -352 127l86 159q98 -111 256 -110q102 0 168.5 59.5t66.5 181.5v144q-45 -76 -112.5 -118t-143.5 -42q-168 0 -265 134t-97 372zM283 506 q0 -147 54 -236.5t159 -89.5q57 0 112.5 39t81.5 96v383q-27 57 -82 96.5t-112 39.5q-104 0 -158.5 -89t-54.5 -239z" />
<glyph unicode="h" horiz-adv-x="995" d="M121 0v1366h205v-510q43 66 121.5 112t166.5 46q260 0 260 -266v-748h-202v676q0 158 -144 158q-61 0 -116.5 -41t-85.5 -97v-696h-205z" />
<glyph unicode="i" horiz-adv-x="444" d="M94 1241q0 53 38 90t91 37t90 -37t37 -90t-38 -90t-89 -37q-53 0 -91 38t-38 89zM121 0v989h203v-989h-203z" />
<glyph unicode="j" horiz-adv-x="444" d="M-139 -338l57 158q41 -45 96 -45q106 0 107 141v1073h203v-1073q0 -317 -289 -317q-104 0 -174 63zM94 1241q0 53 38 90t91 37t90 -37t37 -90t-38 -90t-89 -37q-53 0 -91 38t-38 89z" />
<glyph unicode="k" horiz-adv-x="935" d="M121 0v1366h203v-862l352 485h237l-327 -444l334 -545h-240l-236 414l-120 -160v-254h-203z" />
<glyph unicode="l" horiz-adv-x="444" d="M121 0v1366h203v-1366h-203z" />
<glyph unicode="m" horiz-adv-x="1480" d="M121 0v989h203v-133q35 57 113.5 107.5t162.5 50.5q94 0 154.5 -46t76.5 -128q39 70 119 122t168 52q242 0 242 -260v-754h-203v686q0 147 -125 148q-57 0 -109.5 -41t-80.5 -97v-696h-203v686q0 147 -125 148q-57 0 -108.5 -41t-81.5 -97v-696h-203z" />
<glyph unicode="n" horiz-adv-x="995" d="M121 0v989h203v-133q45 66 124.5 112t165.5 46q260 0 260 -271v-743h-204v674q0 160 -142 160q-61 0 -116.5 -41t-87.5 -97v-696h-203z" />
<glyph unicode="o" horiz-adv-x="1003" d="M72 496q0 219 113.5 368.5t316.5 149.5t316.5 -149.5t113.5 -368.5q0 -221 -113.5 -371t-316.5 -150t-316.5 150t-113.5 371zM283 496q0 -145 55 -242.5t164 -97.5q106 0 161.5 97t55.5 242.5t-55.5 242t-161.5 96.5q-109 0 -164 -97.5t-55 -240.5z" />
<glyph unicode="p" horiz-adv-x="1011" d="M121 -377v1366h203v-131q94 156 256 156q168 0 265 -139.5t97 -378.5q0 -238 -97 -379.5t-265 -141.5q-166 0 -256 158v-510h-203zM324 291q27 -55 83 -95t113 -40q102 0 156.5 94t54.5 246q0 150 -54 244t-157 94q-59 0 -113.5 -38t-82.5 -96v-409z" />
<glyph unicode="q" horiz-adv-x="1011" d="M70 496q0 240 97 379t265 139q162 0 256 -156v131h203v-1366h-203v510q-90 -158 -256 -158q-168 0 -265 141.5t-97 379.5zM281 496q0 -152 54 -246t159 -94q57 0 112.5 40t81.5 95v409q-29 57 -83 95.5t-111 38.5q-104 0 -158.5 -94t-54.5 -244z" />
<glyph unicode="r" horiz-adv-x="630" d="M121 0v989h203v-145q45 74 119.5 121t154.5 47v-203q-25 6 -53 6q-61 0 -126 -41t-95 -96v-678h-203z" />
<glyph unicode="s" horiz-adv-x="823" d="M43 117l92 143q47 -53 119 -88t147 -35q78 0 122 35t44 94q0 51 -50 86t-122.5 59.5t-145.5 55.5t-123 97.5t-50 166.5q0 121 92 202t250 81q195 0 327 -127l-88 -139q-86 104 -237 104q-68 0 -110 -33t-42 -82q0 -47 51.5 -79.5t124 -56t145.5 -56.5t124 -102.5 t51 -170.5q0 -131 -97.5 -214t-260.5 -83q-232 1 -363 142z" />
<glyph unicode="t" horiz-adv-x="577" d="M29 811v178h129v271h202v-271h164v-178h-164v-547q0 -109 76 -108q53 0 78 32l49 -155q-63 -57 -178 -58q-227 0 -227 246v590h-129z" />
<glyph unicode="u" horiz-adv-x="995" d="M121 242v747h203v-676q0 -158 143 -157q61 0 115.5 38.5t87.5 94.5v700h202v-989h-202v129q-45 -66 -123 -110t-166 -44q-260 1 -260 267z" />
<glyph unicode="v" horiz-adv-x="884" d="M2 989h219l221 -745l224 745h217l-332 -989h-219z" />
<glyph unicode="w" horiz-adv-x="1370" d="M14 989h211l174 -721l189 721h188l195 -721l172 721h213l-266 -989h-213l-193 725l-190 -725h-213z" />
<glyph unicode="x" horiz-adv-x="872" d="M12 0l297 504l-280 485h223l184 -340l185 340h223l-283 -485l299 -504h-223l-201 358l-200 -358h-224z" />
<glyph unicode="y" horiz-adv-x="884" d="M2 989h219l221 -743l224 743h217l-394 -1173q-41 -119 -110.5 -167t-179.5 -50q-68 0 -111 14l31 180q23 -14 63 -14q82 0 113 84l43 119z" />
<glyph unicode="z" horiz-adv-x="819" d="M78 0v156l399 655h-399v178h655v-149l-401 -662h409v-178h-663z" />
<glyph unicode="{" horiz-adv-x="499" d="M10 438v123q51 0 79 40t28 99v422q0 117 76.5 192t179.5 75h92v-142h-92q-45 0 -75 -34.5t-30 -90.5v-440q0 -141 -94 -182q94 -41 94 -183v-440q0 -55 31 -90t74 -35h92v-141h-92q-102 0 -179 74.5t-77 191.5v422q0 59 -28 99t-79 40z" />
<glyph unicode="|" horiz-adv-x="401" d="M131 -41v1448h141v-1448h-141z" />
<glyph unicode="}" horiz-adv-x="499" d="M35 -389v141h92q43 0 73.5 35t30.5 90v440q0 141 95 183q-94 41 -95 182v440q0 55 -29.5 90t-74.5 35h-92v142h92q102 0 179 -75t77 -192v-422q0 -59 27.5 -99t78.5 -40v-123q-51 0 -78.5 -40t-27.5 -99v-422q0 -117 -77 -191.5t-179 -74.5h-92z" />
<glyph unicode="~" horiz-adv-x="937" d="M55 870q31 494 267 494q80 0 129 -59.5t63 -130t39 -130t63 -59.5q55 0 82 91t41 290l144 -14q-8 -100 -20.5 -174t-40 -155t-80 -124t-126.5 -43q-80 0 -128 59.5t-62 129t-40 129t-64 59.5q-55 0 -81 -90t-42 -289z" />
<glyph unicode="&#xa1;" horiz-adv-x="495" d="M111 872q0 57 39.5 97.5t97.5 40.5q55 0 96 -40t41 -98q0 -55 -41 -95t-96 -40q-57 0 -97 40t-40 95zM123 -377l37 955h174l39 -955h-250z" />
<glyph unicode="&#xa2;" horiz-adv-x="854" d="M72 496q0 197 91 335t249 173v153h151v-147q156 -16 246 -129l-102 -140q-59 78 -144 90v-673q80 12 144 90l102 -139q-88 -113 -246 -129v-185h-151v191q-158 33 -249 172t-91 338zM283 496q0 -221 129 -306v609q-129 -84 -129 -303z" />
<glyph unicode="&#xa3;" horiz-adv-x="966" d="M53 692h142q-98 156 -99 287q0 172 126 289.5t296 117.5q139 0 238.5 -63t142.5 -184l-180 -92q-49 154 -184 153q-80 0 -137.5 -61.5t-57.5 -163.5q0 -37 5 -70t20 -64l22 -49q8 -17 30 -54l27 -46h228v-137h-174q6 -35 6 -70q0 -74 -38 -145.5t-95 -116.5q37 18 90 19 q55 0 125.5 -33t115.5 -33q111 0 162 72l80 -180q-86 -94 -256 -95q-86 0 -175 45t-142 45q-84 0 -205 -77l-72 159q94 51 150.5 128t56.5 159q0 55 -27 123h-221v137z" />
<glyph unicode="&#xa4;" horiz-adv-x="1069" d="M74 281l114 114q-102 129 -102 287q0 162 102 287l-114 116l57 58l117 -115q121 102 287 102q162 0 286 -102l115 115l59 -58l-114 -116q102 -125 102 -287q0 -158 -102 -287l114 -114l-59 -60l-115 117q-123 -104 -286.5 -104.5t-286.5 104.5l-117 -117zM184 682 q0 -145 102.5 -247.5t248 -102.5t248 102.5t102.5 247.5t-102.5 247.5t-248 102.5t-248 -102.5t-102.5 -247.5z" />
<glyph unicode="&#xa5;" horiz-adv-x="1073" d="M0 1366h250l287 -584l286 584h250l-354 -664h305v-133h-375v-194h375v-131h-375v-244h-225v244h-377v131h377v194h-377v133h305z" />
<glyph unicode="&#xa6;" horiz-adv-x="401" d="M131 -41v647h141v-647h-141zM131 760v647h141v-647h-141z" />
<glyph unicode="&#xa7;" horiz-adv-x="831" d="M45 -23l90 134q43 -51 113.5 -89t148.5 -38t124 38.5t46 100.5q0 49 -36.5 85t-91 55.5t-118 47t-118 58t-91 90t-36.5 141.5q0 88 54 153.5t138 92.5q-193 96 -192 268q0 117 93 194.5t241 77.5q213 0 333 -129l-86 -122q-94 106 -233 106q-70 0 -113 -35t-43 -92 q0 -53 51.5 -88t124 -60.5t145.5 -57t124 -98.5t51 -165q0 -170 -164 -254q164 -92 164 -258q0 -133 -101.5 -216t-256.5 -83q-222 0 -361 143zM264 629q0 -63 47 -102.5t144 -77.5q119 55 118 157q0 119 -153 178q-156 -36 -156 -155z" />
<glyph unicode="&#xa8;" horiz-adv-x="569" d="M-16 1243q0 47 33.5 81t80.5 34t81 -34t34 -81t-34 -81t-81 -34t-80.5 34t-33.5 81zM356 1243q0 47 34 81t81 34t82 -34t35 -81t-35 -81t-82 -34t-81 34t-34 81z" />
<glyph unicode="&#xa9;" horiz-adv-x="1593" d="M90 684q0 293 207 500t500 207t499.5 -207t206.5 -500t-206.5 -500t-499.5 -207t-500 208t-207 499zM158 684q0 -262 188.5 -450.5t450.5 -188.5t450.5 188.5t188.5 450.5t-188.5 450.5t-450.5 188.5t-450.5 -188.5t-188.5 -450.5zM379 686q0 186 124 310t302 124 q184 0 299 -135l-55 -57q-41 53 -106.5 86t-137.5 33q-141 0 -241.5 -101.5t-100.5 -259.5q0 -154 100.5 -258t241.5 -104q156 0 244 118l57 -55q-117 -137 -301 -137q-178 0 -302 126t-124 310z" />
<glyph unicode="&#xaa;" horiz-adv-x="692" d="M59 864.5q0 98.5 59.5 153.5t145.5 55q117 0 180 -78v92q0 59 -35.5 91t-93.5 32q-94 0 -168 -82l-59 101q100 98 254 98q115 0 183.5 -57.5t68.5 -177.5v-424h-150v67q-66 -84 -180 -84q-84 0 -144.5 57.5t-60.5 156zM209 866q0 -53 30.5 -84.5t82.5 -31.5q84 0 122 67 v96q-39 68 -122 68q-51 0 -82 -32t-31 -83z" />
<glyph unicode="&#xab;" horiz-adv-x="866" d="M61 498l256 362h179l-256 -362l256 -369h-179zM373 498l256 362h176l-256 -362l256 -369h-176z" />
<glyph unicode="&#xac;" horiz-adv-x="911" d="M59 813v133h785v-524h-137v391h-648z" />
<glyph unicode="&#xad;" horiz-adv-x="552" d="M61 408v176h431v-176h-431z" />
<glyph unicode="&#xae;" horiz-adv-x="1011" d="M72 952.5q0 180.5 127 307t307 126.5q182 0 308 -125.5t126 -308.5q0 -180 -127 -307t-307 -127t-307 127t-127 307.5zM133 952q0 -154 108.5 -263t264.5 -109t264.5 109.5t108.5 262.5q0 156 -108.5 264.5t-264.5 108.5t-264.5 -108.5t-108.5 -264.5zM340 702v498h203 q66 0 112.5 -42t46.5 -109q0 -72 -46 -110t-81 -38l134 -199h-84l-129 197h-88v-197h-68zM408 961h135q35 0 62.5 25.5t27.5 62.5q0 39 -27.5 65.5t-62.5 26.5h-135v-180z" />
<glyph unicode="&#xaf;" horiz-adv-x="632" d="M0 1210v121h633v-121h-633z" />
<glyph unicode="&#x203e;" horiz-adv-x="632" d="M0 1210v121h633v-121h-633z" />
<glyph unicode="&#xb0;" horiz-adv-x="614" d="M45 1122q0 109 77 186.5t183 77.5q109 0 186.5 -77.5t77.5 -186.5q0 -106 -77.5 -183t-186 -77t-184.5 77t-76 183zM164 1122q0 -57 41 -99t100.5 -42t102.5 42t43 99q0 59 -43 102.5t-103 43.5q-57 0 -99 -43.5t-42 -102.5z" />
<glyph unicode="&#xb1;" horiz-adv-x="903" d="M59 33v133h785v-133h-785zM59 645v131h320v352h145v-352h320v-131h-320v-366h-145v366h-320z" />
<glyph unicode="&#xb2;" horiz-adv-x="692" d="M63 1561q102 133 283 133q123 0 202 -63.5t79 -176.5q0 -94 -75 -192.5t-261 -272.5h340v-127h-551v117q238 215 313.5 304t75.5 163q0 57 -37 89t-92 32q-119 0 -186 -103z" />
<glyph unicode="&#xb3;" horiz-adv-x="692" d="M55 981l92 96q72 -102 191 -102q68 0 103.5 32.5t35.5 88.5q0 123 -158 123q-59 0 -71 -2v126q12 -2 67 -2q152 0 152 113q0 55 -37 84t-98 29q-111 0 -180 -92l-86 88q98 131 278 131q127 0 202 -57.5t75 -163.5q0 -72 -48.5 -123.5t-113.5 -63.5q68 -10 121 -64.5 t53 -134.5q0 -106 -79 -172.5t-210 -66.5q-199 0 -289 133z" />
<glyph unicode="&#xb4;" horiz-adv-x="415" d="M0 1139l225 295h191l-277 -295h-139z" />
<glyph unicode="&#xb5;" horiz-adv-x="995" d="M121 -377v1366h203v-676q0 -160 143 -159q61 0 115.5 39.5t87.5 95.5v700h202v-989h-202v129q-45 -66 -123 -110t-166 -44q-25 0 -57 5v-357h-203z" />
<glyph unicode="&#x3bc;" horiz-adv-x="995" d="M121 -377v1366h203v-676q0 -160 143 -159q61 0 115.5 39.5t87.5 95.5v700h202v-989h-202v129q-45 -66 -123 -110t-166 -44q-25 0 -57 5v-357h-203z" />
<glyph unicode="&#xb6;" horiz-adv-x="919" d="M55 1013.5q0 145.5 103.5 249t249.5 103.5h389v-1571h-109v1462h-172v-1462h-108v867q-145 0 -249 103t-104 248.5z" />
<glyph unicode="&#xb7;" horiz-adv-x="495" d="M111 502q0 55 39.5 95t97 40t97.5 -40t40 -95q0 -57 -40 -97t-97.5 -40t-97 40t-39.5 97z" />
<glyph unicode="&#x2219;" horiz-adv-x="495" d="M111 502q0 55 39.5 95t97 40t97.5 -40t40 -95q0 -57 -40 -97t-97.5 -40t-97 40t-39.5 97z" />
<glyph unicode="&#xb8;" horiz-adv-x="399" d="M0 -332l43 88q74 -57 145 -57q41 0 72 20.5t31 55.5q0 63 -62 63q-37 0 -61 -31l-80 46l62 170h108l-51 -132q27 20 65 21q53 0 90 -39t37 -100q0 -76 -58 -122t-148 -46q-119 0 -193 63z" />
<glyph unicode="&#xb9;" horiz-adv-x="505" d="M23 1442l237 239h137v-819h-157v617l-127 -131z" />
<glyph unicode="&#xba;" horiz-adv-x="724" d="M63 989q0 143 80 240.5t217 97.5q141 0 221.5 -97t80.5 -241q0 -141 -81 -239.5t-221 -98.5q-137 0 -217 98.5t-80 239.5zM219 989q0 -96 36 -155.5t105 -59.5q72 0 109 59.5t37 155.5t-37 154.5t-109 58.5q-70 0 -105.5 -59.5t-35.5 -153.5z" />
<glyph unicode="&#xbb;" horiz-adv-x="866" d="M61 129l256 369l-256 362h179l256 -362l-256 -369h-179zM373 129l256 369l-256 362h176l256 -362l-256 -369h-176z" />
<glyph unicode="&#xbc;" horiz-adv-x="1458" d="M23 1126l237 240h137v-819h-157v616l-127 -131zM279 0l718 1366h117l-721 -1366h-114zM815 193v116l303 510h205v-502h90v-124h-90v-193h-158v193h-350zM961 317h204v349z" />
<glyph unicode="&#xbd;" horiz-adv-x="1529" d="M23 1126l237 240h137v-819h-157v616l-127 -131zM279 0l718 1366h117l-721 -1366h-114zM901 698q102 133 283 133q123 0 201.5 -63t78.5 -176q0 -94 -74.5 -192.5t-261.5 -272.5h340v-127h-550v117q238 215 313.5 304t75.5 163q0 57 -37 89t-92 32q-119 0 -187 -103z" />
<glyph unicode="&#xbe;" horiz-adv-x="1597" d="M55 666l92 96q72 -102 191 -103q68 0 103.5 33t35.5 88q0 123 -158 123q-59 0 -71 -2v127q12 -2 67 -2q152 0 152 113q0 55 -37 83.5t-98 28.5q-111 0 -180 -92l-86 88q98 131 278 131q127 0 202 -57t75 -164q0 -72 -48.5 -123t-113.5 -63q68 -10 121 -64.5t53 -134.5 q0 -106 -79 -173t-210 -67q-199 1 -289 134zM416 0l719 1366h116l-721 -1366h-114zM952 193v116l303 510h205v-502h90v-124h-90v-193h-157v193h-351zM1098 317h205v349z" />
<glyph unicode="&#xbf;" horiz-adv-x="694" d="M45 -94q0 94 47 172t103.5 123t103.5 105.5t47 121.5q0 59 -41 96l172 64q61 -68 62 -174q0 -68 -28 -123t-67 -94l-77 -75q-39 -36 -67 -81t-28 -96q0 -61 44 -104.5t120 -43.5q121 0 205 107l115 -144q-137 -162 -357 -161q-162 0 -258 87t-96 220zM264 872 q0 57 41 97.5t96 40.5q57 0 97.5 -40t40.5 -98q0 -55 -40 -95t-98 -40q-55 0 -96 40t-41 95z" />
<glyph unicode="&#xc0;" d="M6 0l410 1366h270l410 -1366h-244l-76 270h-450l-76 -270h-244zM274 1786h189l227 -295h-139zM371 471h360l-180 653z" />
<glyph unicode="&#xc1;" d="M6 0l410 1366h270l410 -1366h-244l-76 270h-450l-76 -270h-244zM371 471h360l-180 653zM416 1491l225 295h190l-276 -295h-139z" />
<glyph unicode="&#xc2;" d="M6 0l410 1366h270l410 -1366h-244l-76 270h-450l-76 -270h-244zM297 1491l160 295h188l166 -295h-123l-137 199l-131 -199h-123zM371 471h360l-180 653z" />
<glyph unicode="&#xc3;" d="M6 0l410 1366h270l410 -1366h-244l-76 270h-450l-76 -270h-244zM262 1499q0 125 49 200t140 75q43 0 74.5 -26t47 -57.5t38 -57t46.5 -25.5q74 0 74 153h111q0 -125 -48.5 -199.5t-138.5 -74.5q-43 0 -74.5 25.5t-48 57.5t-38 57.5t-45.5 25.5q-76 0 -76 -154h-111z M371 471h360l-180 653z" />
<glyph unicode="&#xc4;" d="M6 0l410 1366h270l410 -1366h-244l-76 270h-450l-76 -270h-244zM250 1593q0 47 33.5 81t81 34t81 -34t33.5 -81t-33.5 -80.5t-81 -33.5t-81 33.5t-33.5 80.5zM371 471h360l-180 653zM623 1593q0 47 33.5 81t80.5 34t82 -34t35 -81t-35 -80.5t-82 -33.5t-80.5 33.5 t-33.5 80.5z" />
<glyph unicode="&#xc5;" d="M6 0l410 1366h270l410 -1366h-244l-76 270h-450l-76 -270h-244zM358 1612q0 80 57.5 136t137.5 56q78 0 134 -56t56 -136t-56 -137.5t-134 -57.5q-80 0 -137.5 57.5t-57.5 137.5zM371 471h360l-180 653zM455 1612q0 -41 28.5 -70t69.5 -29q39 0 66.5 29t27.5 70 t-27.5 68.5t-66.5 27.5q-41 0 -69.5 -27.5t-28.5 -68.5z" />
<glyph unicode="&#xc6;" horiz-adv-x="1585" d="M8 0l649 1366h842v-199h-522v-370h508v-199h-508v-399h522v-199h-747v270h-377l-123 -270h-244zM455 471h297v653z" />
<glyph unicode="&#xc7;" horiz-adv-x="1124" d="M80 682q0 313 152.5 510t406.5 197q291 0 434 -302l-186 -83q-84 184 -248 184q-150 0 -239 -141.5t-89 -364.5t89 -364.5t239 -141.5q86 0 149.5 55.5t98.5 145.5l188 -82q-135 -301 -403 -318l-29 -77q27 20 66 20q53 0 90 -39t37 -100q0 -76 -58.5 -122t-148.5 -46 q-119 0 -193 63l43 88q74 -57 146 -57q41 0 71.5 20.5t30.5 55.5q0 63 -61 63q-37 0 -62 -30l-80 45l43 121q-225 27 -356 218t-131 482z" />
<glyph unicode="&#xc8;" horiz-adv-x="968" d="M131 0v1366h750v-199h-525v-370h510v-199h-510v-399h525v-199h-750zM229 1786h189l227 -295h-139z" />
<glyph unicode="&#xc9;" horiz-adv-x="968" d="M131 0v1366h750v-199h-525v-370h510v-199h-510v-399h525v-199h-750zM373 1491l225 295h190l-276 -295h-139z" />
<glyph unicode="&#xca;" horiz-adv-x="968" d="M131 0v1366h750v-199h-525v-370h510v-199h-510v-399h525v-199h-750zM250 1491l160 295h188l166 -295h-123l-137 199l-131 -199h-123z" />
<glyph unicode="&#xcb;" horiz-adv-x="968" d="M131 0v1366h750v-199h-525v-370h510v-199h-510v-399h525v-199h-750zM207 1593q0 47 33.5 81t81 34t81 -34t33.5 -81t-33.5 -80.5t-81 -33.5t-81 33.5t-33.5 80.5zM580 1593q0 47 33.5 81t80.5 34t82 -34t35 -81t-35 -80.5t-82 -33.5t-80.5 33.5t-33.5 80.5z" />
<glyph unicode="&#xcc;" horiz-adv-x="487" d="M-35 1786h189l227 -295h-139zM131 0v1366h225v-1366h-225z" />
<glyph unicode="&#xcd;" horiz-adv-x="487" d="M111 1491l225 295h190l-276 -295h-139zM131 0v1366h225v-1366h-225z" />
<glyph unicode="&#xce;" horiz-adv-x="487" d="M-12 1491l159 295h189l166 -295h-123l-137 199l-131 -199h-123zM131 0v1366h225v-1366h-225z" />
<glyph unicode="&#xcf;" horiz-adv-x="487" d="M-55 1593q0 47 33.5 81t80.5 34t81 -34t34 -81t-34 -80.5t-81 -33.5t-80.5 33.5t-33.5 80.5zM131 0v1366h225v-1366h-225zM317 1593q0 47 34 81t81 34t82 -34t35 -81t-35 -80.5t-82 -33.5t-81 33.5t-34 80.5z" />
<glyph unicode="&#xd0;" horiz-adv-x="1245" d="M29 592v164h151v610h408q270 0 423.5 -190.5t153.5 -493.5q0 -305 -151.5 -493.5t-423.5 -188.5h-410v592h-151zM406 199h182q166 0 256 133t90 350q0 223 -89 354t-257 131h-182v-411h237v-164h-237v-393z" />
<glyph unicode="&#xd1;" horiz-adv-x="1216" d="M131 0v1366h229l498 -895v895h227v-1366h-217l-512 922v-922h-225zM315 1499q0 125 49.5 200t139.5 75q43 0 74.5 -26t47 -57.5t38 -57t47.5 -25.5q74 0 73 153h111q0 -125 -48 -199.5t-138 -74.5q-43 0 -75 25.5t-48.5 57.5t-38 57.5t-45.5 25.5q-76 0 -76 -154h-111z " />
<glyph unicode="&#xd2;" horiz-adv-x="1259" d="M80 682q0 309 147.5 508t401.5 199q256 0 403.5 -199t147.5 -508t-147.5 -508t-403.5 -199q-254 0 -401.5 199t-147.5 508zM311 682q0 -221 84 -363.5t233.5 -142.5t233.5 142.5t84 363.5q0 223 -84 364.5t-233.5 141.5t-233.5 -141.5t-84 -364.5zM354 1786h189l227 -295 h-139z" />
<glyph unicode="&#xd3;" horiz-adv-x="1259" d="M80 682q0 309 147.5 508t401.5 199q256 0 403.5 -199t147.5 -508t-147.5 -508t-403.5 -199q-254 0 -401.5 199t-147.5 508zM311 682q0 -221 84 -363.5t233.5 -142.5t233.5 142.5t84 363.5q0 223 -84 364.5t-233.5 141.5t-233.5 -141.5t-84 -364.5zM496 1491l225 295h190 l-276 -295h-139z" />
<glyph unicode="&#xd4;" horiz-adv-x="1259" d="M80 682q0 309 147.5 508t401.5 199q256 0 403.5 -199t147.5 -508t-147.5 -508t-403.5 -199q-254 0 -401.5 199t-147.5 508zM311 682q0 -221 84 -363.5t233.5 -142.5t233.5 142.5t84 363.5q0 223 -84 364.5t-233.5 141.5t-233.5 -141.5t-84 -364.5zM375 1491l160 295h188 l166 -295h-123l-137 199l-131 -199h-123z" />
<glyph unicode="&#xd5;" horiz-adv-x="1259" d="M80 682q0 309 147.5 508t401.5 199q256 0 403.5 -199t147.5 -508t-147.5 -508t-403.5 -199q-254 0 -401.5 199t-147.5 508zM311 682q0 -221 84 -363.5t233.5 -142.5t233.5 142.5t84 363.5q0 223 -84 364.5t-233.5 141.5t-233.5 -141.5t-84 -364.5zM340 1499q0 125 49 200 t139 75q43 0 75 -26t47.5 -57.5t38 -57t46.5 -25.5q74 0 74 153h111q0 -125 -48.5 -199.5t-138.5 -74.5q-43 0 -74.5 25.5t-48 57.5t-38 57.5t-46.5 25.5q-76 0 -75 -154h-111z" />
<glyph unicode="&#xd6;" horiz-adv-x="1259" d="M80 682q0 309 147.5 508t401.5 199q256 0 403.5 -199t147.5 -508t-147.5 -508t-403.5 -199q-254 0 -401.5 199t-147.5 508zM311 682q0 -221 84 -363.5t233.5 -142.5t233.5 142.5t84 363.5q0 223 -84 364.5t-233.5 141.5t-233.5 -141.5t-84 -364.5zM330 1593q0 47 33.5 81 t81 34t81 -34t33.5 -81t-33.5 -80.5t-81 -33.5t-81 33.5t-33.5 80.5zM702 1593q0 47 34 81t81 34t82 -34t35 -81t-35 -80.5t-82 -33.5t-81 33.5t-34 80.5z" />
<glyph unicode="&#xd7;" horiz-adv-x="903" d="M104 430l254 254l-254 254l95 94l254 -256l254 256l92 -94l-252 -254l252 -254l-92 -94l-254 256l-254 -256z" />
<glyph unicode="&#xd8;" horiz-adv-x="1259" d="M80 682q0 309 147.5 508t401.5 199q160 0 282 -84l37 61h154l-90 -152q168 -199 168 -532q0 -309 -147.5 -508t-403.5 -199q-164 0 -293 91l-37 -66h-154l93 160q-158 194 -158 522zM311 682q0 -178 56 -305l436 741q-74 70 -174 70q-150 0 -234 -141.5t-84 -364.5z M446 252q72 -76 183 -76q150 0 233.5 142.5t83.5 363.5q0 186 -59 317z" />
<glyph unicode="&#xd9;" horiz-adv-x="1214" d="M131 461v905h227v-907q0 -137 64.5 -210t185.5 -73q119 0 183.5 73t64.5 210v907h227v-905q0 -231 -127 -358.5t-348 -127.5q-223 0 -350 127.5t-127 358.5zM332 1786h188l228 -295h-140z" />
<glyph unicode="&#xda;" horiz-adv-x="1214" d="M131 461v905h227v-907q0 -137 64.5 -210t185.5 -73q119 0 183.5 73t64.5 210v907h227v-905q0 -231 -127 -358.5t-348 -127.5q-223 0 -350 127.5t-127 358.5zM473 1491l225 295h191l-277 -295h-139z" />
<glyph unicode="&#xdb;" horiz-adv-x="1214" d="M131 461v905h227v-907q0 -137 64.5 -210t185.5 -73q119 0 183.5 73t64.5 210v907h227v-905q0 -231 -127 -358.5t-348 -127.5q-223 0 -350 127.5t-127 358.5zM356 1491l160 295h189l165 -295h-122l-138 199l-131 -199h-123z" />
<glyph unicode="&#xdc;" horiz-adv-x="1214" d="M131 461v905h227v-907q0 -137 64.5 -210t185.5 -73q119 0 183.5 73t64.5 210v907h227v-905q0 -231 -127 -358.5t-348 -127.5q-223 0 -350 127.5t-127 358.5zM307 1593q0 47 34 81t81 34t81 -34t34 -81t-34 -80.5t-81 -33.5t-81 33.5t-34 80.5zM680 1593q0 47 34 81t81 34 t81.5 -34t34.5 -81t-34.5 -80.5t-81.5 -33.5t-81 33.5t-34 80.5z" />
<glyph unicode="&#xdd;" horiz-adv-x="1073" d="M0 1366h250l287 -584l286 584h250l-424 -797v-569h-225v569zM408 1491l225 295h190l-276 -295h-139z" />
<glyph unicode="&#xde;" horiz-adv-x="1054" d="M131 0v1366h225v-233h240q195 0 300 -123t105 -303.5t-106.5 -301t-298.5 -120.5h-240v-285h-225zM356 483h213q92 0 146.5 61.5t54.5 162.5q0 102 -54 164.5t-147 62.5h-213v-451z" />
<glyph unicode="&#xdf;" horiz-adv-x="1140" d="M129 0v1010q0 162 107.5 269t285.5 107q152 0 260.5 -78.5t108.5 -199.5q0 -74 -38 -132t-84 -89t-84 -70t-38 -82q0 -47 48 -78.5t116 -55t135.5 -56.5t115.5 -101.5t48 -169.5q0 -125 -95 -212t-251 -87q-201 0 -340 144l84 143q98 -123 237 -123q72 0 116 37t44 92 q0 51 -47 87t-113.5 61.5t-133 57.5t-113.5 95.5t-47 155.5q0 68 36.5 123t80.5 85t81 69.5t37 80.5q0 53 -48 88t-116 35q-84 0 -137 -51t-53 -145v-1010h-203z" />
<glyph unicode="&#xe0;" horiz-adv-x="960" d="M70 303q0 154 88 239t215 85q178 0 262 -123v147q0 90 -50 139.5t-143 49.5q-135 0 -247 -115l-80 143q143 145 364 146q166 0 263.5 -82t97.5 -254v-678h-205v104q-90 -129 -262 -129q-125 0 -214 89t-89 239zM203 1434h188l227 -295h-139zM274 301q0 -80 47.5 -132 t124.5 -52q133 0 189 102v162q-55 104 -189 104q-78 0 -125 -52t-47 -132z" />
<glyph unicode="&#xe1;" horiz-adv-x="960" d="M70 303q0 154 88 239t215 85q178 0 262 -123v147q0 90 -50 139.5t-143 49.5q-135 0 -247 -115l-80 143q143 145 364 146q166 0 263.5 -82t97.5 -254v-678h-205v104q-90 -129 -262 -129q-125 0 -214 89t-89 239zM274 301q0 -80 47.5 -132t124.5 -52q133 0 189 102v162 q-55 104 -189 104q-78 0 -125 -52t-47 -132zM348 1139l225 295h191l-277 -295h-139z" />
<glyph unicode="&#xe2;" horiz-adv-x="960" d="M70 303q0 154 88 239t215 85q178 0 262 -123v147q0 90 -50 139.5t-143 49.5q-135 0 -247 -115l-80 143q143 145 364 146q166 0 263.5 -82t97.5 -254v-678h-205v104q-90 -129 -262 -129q-125 0 -214 89t-89 239zM229 1139l160 295h189l165 -295h-122l-138 198l-131 -198 h-123zM274 301q0 -80 47.5 -132t124.5 -52q133 0 189 102v162q-55 104 -189 104q-78 0 -125 -52t-47 -132z" />
<glyph unicode="&#xe3;" horiz-adv-x="960" d="M70 303q0 154 88 239t215 85q178 0 262 -123v147q0 90 -50 139.5t-143 49.5q-135 0 -247 -115l-80 143q143 145 364 146q166 0 263.5 -82t97.5 -254v-678h-205v104q-90 -129 -262 -129q-125 0 -214 89t-89 239zM193 1147q0 125 49 199.5t139 74.5q43 0 74.5 -25.5t47 -57 t38 -57.5t47.5 -26q74 0 74 154h110q0 -125 -48 -199.5t-138 -74.5q-43 0 -75 25.5t-48.5 57t-38 57t-45.5 25.5q-76 0 -76 -153h-110zM274 301q0 -80 47.5 -132t124.5 -52q133 0 189 102v162q-55 104 -189 104q-78 0 -125 -52t-47 -132z" />
<glyph unicode="&#xe4;" horiz-adv-x="960" d="M70 303q0 154 88 239t215 85q178 0 262 -123v147q0 90 -50 139.5t-143 49.5q-135 0 -247 -115l-80 143q143 145 364 146q166 0 263.5 -82t97.5 -254v-678h-205v104q-90 -129 -262 -129q-125 0 -214 89t-89 239zM178 1243q0 47 34 81t81 34t81 -34t34 -81t-34 -81t-81 -34 t-81 34t-34 81zM274 301q0 -80 47.5 -132t124.5 -52q133 0 189 102v162q-55 104 -189 104q-78 0 -125 -52t-47 -132zM551 1243q0 47 33.5 81t81 34t82 -34t34.5 -81t-34.5 -81t-82 -34t-81 34t-33.5 81z" />
<glyph unicode="&#xe5;" horiz-adv-x="960" d="M70 303q0 154 88 239t215 85q178 0 262 -123v147q0 90 -50 139.5t-143 49.5q-135 0 -247 -115l-80 143q143 145 364 146q166 0 263.5 -82t97.5 -254v-678h-205v104q-90 -129 -262 -129q-125 0 -214 89t-89 239zM274 301q0 -80 47.5 -132t124.5 -52q133 0 189 102v162 q-55 104 -189 104q-78 0 -125 -52t-47 -132zM287 1309q0 80 57 136t137 56q78 0 134.5 -56t56.5 -136t-56.5 -137.5t-134.5 -57.5q-80 0 -137 57.5t-57 137.5zM383 1309q0 -41 28.5 -70t69.5 -29q39 0 66.5 29t27.5 70t-27.5 68.5t-66.5 27.5q-41 0 -69.5 -27.5t-28.5 -68.5 z" />
<glyph unicode="&#xe6;" horiz-adv-x="1533" d="M70 301q0 150 87 238t216 88q176 0 262 -123v147q0 90 -50 139.5t-143 49.5q-135 0 -247 -115l-80 143q143 145 364 145.5t287 -161.5q98 162 299 162q188 0 295.5 -147.5t107.5 -379.5v-59h-632q8 -127 75.5 -206t184.5 -79q133 0 225 109l98 -125q-133 -152 -342 -152 q-227 0 -354 183q-127 -182 -342 -183q-131 0 -221 87t-90 239zM274 301q0 -86 47.5 -135t124.5 -49q145 0 211 135q-23 63 -22 127q-55 106 -189 106q-76 0 -124 -50t-48 -134zM836 573h436q-2 109 -55.5 191t-163.5 82q-104 0 -158.5 -83.5t-58.5 -189.5z" />
<glyph unicode="&#xe7;" horiz-adv-x="854" d="M72 496q0 225 119.5 371.5t314.5 146.5q197 0 303 -133l-102 -140q-72 92 -179 93q-113 0 -179 -96.5t-66 -242t66.5 -242.5t178.5 -97q104 0 179 92l102 -139q-92 -117 -258 -132l-31 -81q27 20 66 20q53 0 90 -39t37 -100q0 -76 -58.5 -122t-148.5 -46q-119 0 -193 63 l43 88q74 -57 146 -57q41 0 71.5 20.5t30.5 55.5q0 63 -61 63q-37 0 -62 -30l-80 45l43 123q-170 23 -271 165t-101 351z" />
<glyph unicode="&#xe8;" horiz-adv-x="974" d="M72 496q0 221 116.5 369.5t309.5 148.5q197 0 304 -146.5t107 -378.5v-61h-630q6 -127 73.5 -206t186.5 -79q135 0 225 107l98 -123q-135 -152 -344 -152q-203 0 -324.5 145t-121.5 376zM221 1434h189l227 -295h-139zM276 573h437q-2 109 -55.5 191t-161.5 82 q-106 0 -161 -83.5t-59 -189.5z" />
<glyph unicode="&#xe9;" horiz-adv-x="974" d="M72 496q0 221 116.5 369.5t309.5 148.5q197 0 304 -146.5t107 -378.5v-61h-630q6 -127 73.5 -206t186.5 -79q135 0 225 107l98 -123q-135 -152 -344 -152q-203 0 -324.5 145t-121.5 376zM276 573h437q-2 109 -55.5 191t-161.5 82q-106 0 -161 -83.5t-59 -189.5zM367 1139 l225 295h190l-276 -295h-139z" />
<glyph unicode="&#xea;" horiz-adv-x="974" d="M72 496q0 221 116.5 369.5t309.5 148.5q197 0 304 -146.5t107 -378.5v-61h-630q6 -127 73.5 -206t186.5 -79q135 0 225 107l98 -123q-135 -152 -344 -152q-203 0 -324.5 145t-121.5 376zM242 1139l159 295h189l166 -295h-123l-137 198l-131 -198h-123zM276 573h437 q-2 109 -55.5 191t-161.5 82q-106 0 -161 -83.5t-59 -189.5z" />
<glyph unicode="&#xeb;" horiz-adv-x="974" d="M72 496q0 221 116.5 369.5t309.5 148.5q197 0 304 -146.5t107 -378.5v-61h-630q6 -127 73.5 -206t186.5 -79q135 0 225 107l98 -123q-135 -152 -344 -152q-203 0 -324.5 145t-121.5 376zM195 1243q0 47 33.5 81t80.5 34t81 -34t34 -81t-34 -81t-81 -34t-80.5 34t-33.5 81 zM276 573h437q-2 109 -55.5 191t-161.5 82q-106 0 -161 -83.5t-59 -189.5zM567 1243q0 47 34 81t81 34t82 -34t35 -81t-35 -81t-82 -34t-81 34t-34 81z" />
<glyph unicode="&#xec;" horiz-adv-x="444" d="M-57 1434h188l227 -295h-139zM121 0v989h203v-989h-203z" />
<glyph unicode="&#xed;" horiz-adv-x="444" d="M88 1139l225 295h191l-277 -295h-139zM121 0v989h203v-989h-203z" />
<glyph unicode="&#xee;" horiz-adv-x="444" d="M-33 1139l160 295h188l166 -295h-123l-137 198l-131 -198h-123zM121 0v989h203v-989h-203z" />
<glyph unicode="&#xef;" horiz-adv-x="444" d="M-78 1243q0 47 34 81t81 34t81 -34t34 -81t-34 -81t-81 -34t-81 34t-34 81zM121 0v989h203v-989h-203zM295 1243q0 47 33.5 81t81 34t82 -34t34.5 -81t-34.5 -81t-82 -34t-81 34t-33.5 81z" />
<glyph unicode="&#xf0;" horiz-adv-x="1003" d="M72 471q0 211 101 351.5t271 140.5q162 0 254 -160q-55 152 -194 319l-254 -112l-45 102l221 96q-57 57 -113 107l146 125q68 -61 149 -152l183 80l40 -98l-149 -68q250 -324 250 -676q0 -248 -112.5 -399.5t-317.5 -151.5q-201 0 -315.5 141.5t-114.5 354.5zM283 471 q0 -133 56 -224t162.5 -91t162 90t55.5 225q0 131 -55.5 222t-162 91t-162.5 -91t-56 -222z" />
<glyph unicode="&#xf1;" horiz-adv-x="995" d="M125 0v989h203v-133q45 66 124.5 112t165.5 46q260 0 261 -271v-743h-205v674q0 160 -142 160q-61 0 -116.5 -41t-87.5 -97v-696h-203zM211 1147q0 125 49 199.5t139 74.5q43 0 75 -25.5t47.5 -57t38 -57.5t46.5 -26q74 0 74 154h111q0 -125 -48.5 -199.5t-138.5 -74.5 q-43 0 -74.5 25.5t-48 57t-38 57t-46.5 25.5q-76 0 -75 -153h-111z" />
<glyph unicode="&#xf2;" horiz-adv-x="1003" d="M72 496q0 219 113.5 368.5t316.5 149.5t316.5 -149.5t113.5 -368.5q0 -221 -113.5 -371t-316.5 -150t-316.5 150t-113.5 371zM223 1434h189l227 -295h-139zM283 496q0 -145 55 -242.5t164 -97.5q106 0 161.5 97t55.5 242.5t-55.5 242t-161.5 96.5q-109 0 -164 -97.5 t-55 -240.5z" />
<glyph unicode="&#xf3;" horiz-adv-x="1003" d="M72 496q0 219 113.5 368.5t316.5 149.5t316.5 -149.5t113.5 -368.5q0 -221 -113.5 -371t-316.5 -150t-316.5 150t-113.5 371zM283 496q0 -145 55 -242.5t164 -97.5q106 0 161.5 97t55.5 242.5t-55.5 242t-161.5 96.5q-109 0 -164 -97.5t-55 -240.5zM367 1139l225 295h190 l-276 -295h-139z" />
<glyph unicode="&#xf4;" horiz-adv-x="1003" d="M72 496q0 219 113.5 368.5t316.5 149.5t316.5 -149.5t113.5 -368.5q0 -221 -113.5 -371t-316.5 -150t-316.5 150t-113.5 371zM246 1139l160 295h188l166 -295h-123l-137 198l-131 -198h-123zM283 496q0 -145 55 -242.5t164 -97.5q106 0 161.5 97t55.5 242.5t-55.5 242 t-161.5 96.5q-109 0 -164 -97.5t-55 -240.5z" />
<glyph unicode="&#xf5;" horiz-adv-x="1003" d="M72 496q0 219 113.5 368.5t316.5 149.5t316.5 -149.5t113.5 -368.5q0 -221 -113.5 -371t-316.5 -150t-316.5 150t-113.5 371zM211 1147q0 125 49 199.5t139 74.5q43 0 75 -25.5t47.5 -57t38 -57.5t46.5 -26q74 0 74 154h111q0 -125 -48.5 -199.5t-138.5 -74.5 q-43 0 -74.5 25.5t-48 57t-38 57t-46.5 25.5q-76 0 -75 -153h-111zM283 496q0 -145 55 -242.5t164 -97.5q106 0 161.5 97t55.5 242.5t-55.5 242t-161.5 96.5q-109 0 -164 -97.5t-55 -240.5z" />
<glyph unicode="&#xf6;" horiz-adv-x="1003" d="M72 496q0 219 113.5 368.5t316.5 149.5t316.5 -149.5t113.5 -368.5q0 -221 -113.5 -371t-316.5 -150t-316.5 150t-113.5 371zM201 1243q0 47 33.5 81t80.5 34t81 -34t34 -81t-34 -81t-81 -34t-80.5 34t-33.5 81zM283 496q0 -145 55 -242.5t164 -97.5q106 0 161.5 97 t55.5 242.5t-55.5 242t-161.5 96.5q-109 0 -164 -97.5t-55 -240.5zM573 1243q0 47 34 81t81 34t82 -34t35 -81t-35 -81t-82 -34t-81 34t-34 81z" />
<glyph unicode="&#xf7;" horiz-adv-x="907" d="M59 625v133h789v-133h-789zM346 350q0 45 32 76t77 31t76.5 -31t31.5 -76t-31.5 -76.5t-76.5 -31.5t-77 31.5t-32 76.5zM346 1026q0 45 32 76t77 31t76.5 -31t31.5 -76t-31.5 -76.5t-76.5 -31.5t-77 31.5t-32 76.5z" />
<glyph unicode="&#xf8;" horiz-adv-x="1003" d="M72 496q0 219 113.5 368.5t316.5 149.5q137 0 239 -76l37 51h125l-86 -125q115 -143 115 -368q0 -221 -113.5 -371t-316.5 -150q-141 0 -246 78l-37 -53h-127l90 129q-110 146 -110 367zM283 496q0 -104 26 -183l322 465q-51 55 -129 56q-109 0 -164 -97.5t-55 -240.5z M367 213q53 -57 135 -57q106 0 161.5 97t55.5 243q0 102 -29 184z" />
<glyph unicode="&#xf9;" horiz-adv-x="995" d="M121 242v747h203v-676q0 -158 143 -157q61 0 115.5 38.5t87.5 94.5v700h202v-989h-202v129q-45 -66 -123 -110t-166 -44q-260 1 -260 267zM221 1434h189l227 -295h-139z" />
<glyph unicode="&#xfa;" horiz-adv-x="995" d="M121 242v747h203v-676q0 -158 143 -157q61 0 115.5 38.5t87.5 94.5v700h202v-989h-202v129q-45 -66 -123 -110t-166 -44q-260 1 -260 267zM365 1139l225 295h190l-276 -295h-139z" />
<glyph unicode="&#xfb;" horiz-adv-x="995" d="M121 242v747h203v-676q0 -158 143 -157q61 0 115.5 38.5t87.5 94.5v700h202v-989h-202v129q-45 -66 -123 -110t-166 -44q-260 1 -260 267zM242 1139l159 295h189l166 -295h-123l-137 198l-131 -198h-123z" />
<glyph unicode="&#xfc;" horiz-adv-x="995" d="M121 242v747h203v-676q0 -158 143 -157q61 0 115.5 38.5t87.5 94.5v700h202v-989h-202v129q-45 -66 -123 -110t-166 -44q-260 1 -260 267zM201 1243q0 47 33.5 81t80.5 34t81 -34t34 -81t-34 -81t-81 -34t-80.5 34t-33.5 81zM573 1243q0 47 34 81t81 34t82 -34t35 -81 t-35 -81t-82 -34t-81 34t-34 81z" />
<glyph unicode="&#xfd;" horiz-adv-x="884" d="M2 989h219l221 -743l224 743h217l-394 -1173q-41 -119 -110.5 -167t-179.5 -50q-68 0 -111 14l31 180q23 -14 63 -14q82 0 113 84l43 119zM307 1139l225 295h191l-277 -295h-139z" />
<glyph unicode="&#xfe;" horiz-adv-x="1011" d="M121 -377v1743h203v-506q92 154 256 154q168 0 265 -139.5t97 -378.5q0 -238 -97 -379.5t-265 -141.5q-166 0 -256 156v-508h-203zM324 291q27 -55 83 -95t113 -40q102 0 156.5 94t54.5 246q0 150 -54 244t-157 94q-59 0 -113.5 -38t-82.5 -96v-409z" />
<glyph unicode="&#xff;" horiz-adv-x="884" d="M2 989h219l221 -743l224 743h217l-394 -1173q-41 -119 -110.5 -167t-179.5 -50q-68 0 -111 14l31 180q23 -14 63 -14q82 0 113 84l43 119zM141 1243q0 47 34 81t81 34t81 -34t34 -81t-34 -81t-81 -34t-81 34t-34 81zM514 1243q0 47 34 81t81 34t81.5 -34t34.5 -81 t-34.5 -81t-81.5 -34t-81 34t-34 81z" />
<glyph unicode="&#x152;" horiz-adv-x="1757" d="M80 682q0 311 138 507.5t378 196.5q96 0 185 -45t143 -135v160h749v-199h-524v-370h510v-199h-510v-399h524v-199h-749v160q-53 -92 -142.5 -138.5t-185.5 -46.5q-240 0 -378 198t-138 509zM311 682q0 -223 84 -364.5t238 -141.5q98 0 175 64.5t116 183.5v518 q-37 119 -114 181.5t-177 62.5q-154 0 -238 -140.5t-84 -363.5z" />
<glyph unicode="&#x153;" horiz-adv-x="1624" d="M72 496q0 219 113.5 368.5t316.5 149.5q217 0 323 -221q104 221 322 221q195 0 303.5 -147.5t108.5 -379.5v-59h-633q6 -127 74.5 -206t185.5 -79q135 0 225 107l98 -123q-133 -152 -342 -152q-229 0 -342 224q-106 -223 -323 -224q-203 0 -316.5 150t-113.5 371z M283 496q0 -147 56 -244.5t163 -97.5q104 0 160.5 97t56.5 245q0 145 -56.5 241.5t-160.5 96.5q-106 0 -162.5 -96.5t-56.5 -241.5zM926 573h436q-4 109 -57.5 191t-161.5 82q-104 0 -158.5 -83.5t-58.5 -189.5z" />
<glyph unicode="&#x178;" horiz-adv-x="1073" d="M0 1366h250l287 -584l286 584h250l-424 -797v-569h-225v569zM240 1593q0 47 33.5 81t80.5 34t81 -34t34 -81t-34 -80.5t-81 -33.5t-80.5 33.5t-33.5 80.5zM612 1593q0 47 34 81t81 34t82 -34t35 -81t-35 -80.5t-82 -33.5t-81 33.5t-34 80.5z" />
<glyph unicode="&#x2c6;" horiz-adv-x="514" d="M0 1139l160 295h188l166 -295h-123l-137 198l-131 -198h-123z" />
<glyph unicode="&#x2dc;" horiz-adv-x="579" d="M0 1147q0 125 49 199.5t139 74.5q43 0 75 -25.5t47.5 -57t38 -57.5t46.5 -26q74 0 74 154h111q0 -125 -48.5 -199.5t-138.5 -74.5q-43 0 -74.5 25.5t-48 57t-38 57t-46.5 25.5q-76 0 -75 -153h-111z" />
<glyph unicode="&#x2013;" horiz-adv-x="1079" d="M61 408v176h957v-176h-957z" />
<glyph unicode="&#x2014;" horiz-adv-x="1509" d="M61 408v176h1387v-176h-1387z" />
<glyph unicode="&#x2018;" horiz-adv-x="497" d="M96 1047q0 102 50.5 192t136.5 147l92 -73q-49 -31 -92 -87.5t-52 -105.5q8 4 33 4q49 0 83 -34.5t34 -90t-39 -94.5t-94 -39q-63 0 -107.5 48.5t-44.5 132.5z" />
<glyph unicode="&#x2019;" horiz-adv-x="497" d="M111 1251q0 55 38.5 95t94.5 40q63 0 107 -48t44 -132q0 -102 -50 -192t-136 -150l-92 76q49 31 92 86t51 107q-8 -4 -33 -5q-49 0 -82.5 35t-33.5 88z" />
<glyph unicode="&#x201a;" horiz-adv-x="497" d="M111 118.5q0 55.5 38.5 94.5t94.5 39q63 0 107 -48t44 -132q0 -100 -51 -191.5t-135 -148.5l-92 75q49 29 92 85.5t51 105.5q-8 -4 -33 -4q-49 0 -82.5 34.5t-33.5 90z" />
<glyph unicode="&#x201c;" horiz-adv-x="866" d="M100 1047q0 102 51.5 191t135.5 148l94 -73q-51 -31 -94 -87.5t-51 -105.5q8 4 32 4q51 0 85 -34.5t34 -90t-40 -94.5t-95 -39q-63 0 -107.5 49.5t-44.5 131.5zM469 1047q0 102 51 191t135 148l95 -73q-51 -31 -94.5 -87.5t-51.5 -105.5q12 4 33 4q51 0 85 -34.5t34 -90 t-39 -94.5t-94 -39q-63 0 -108.5 49.5t-45.5 131.5z" />
<glyph unicode="&#x201d;" horiz-adv-x="866" d="M111 1251q0 55 38.5 95t94.5 40q63 0 107 -48t44 -132q0 -102 -50 -192t-136 -150l-92 76q49 31 92 86t51 107q-8 -4 -33 -5q-49 0 -82.5 35t-33.5 88zM479 1251q0 55 39 95t94 40q63 0 108.5 -49t45.5 -131q0 -100 -51 -190t-135 -152l-95 76q51 31 94.5 86t51.5 107 q-12 -4 -33 -5q-51 0 -85 35t-34 88z" />
<glyph unicode="&#x201e;" horiz-adv-x="866" d="M111 118.5q0 55.5 38.5 94.5t94.5 39q63 0 107 -48t44 -132q0 -100 -51 -191.5t-135 -148.5l-92 75q49 29 92 85.5t51 105.5q-8 -4 -33 -4q-49 0 -82.5 34.5t-33.5 90zM479 118.5q0 55.5 39 94.5t94 39q63 0 108.5 -49t45.5 -131q0 -100 -51 -190.5t-135 -149.5l-95 75 q51 31 94.5 86.5t51.5 104.5q-12 -4 -33 -4q-51 0 -85 34.5t-34 90z" />
<glyph unicode="&#x2022;" horiz-adv-x="733" d="M137 495.5q0 94.5 68.5 163t163 68.5t163 -68.5t68.5 -163t-68.5 -162t-163 -67.5t-163 67.5t-68.5 162z" />
<glyph unicode="&#x2026;" horiz-adv-x="1486" d="M111 117q0 55 39.5 95t97 40t97.5 -40t40 -95q0 -57 -40 -97t-97.5 -40t-97 40t-39.5 97zM606 117q0 55 40 95t97.5 40t97.5 -40t40 -95q0 -57 -40 -97t-97.5 -40t-97.5 40t-40 97zM1102 117q0 55 40 95t97 40q55 0 96 -40t41 -95q0 -57 -41 -97t-96 -40q-57 0 -97 40 t-40 97z" />
<glyph unicode="&#x2039;" horiz-adv-x="557" d="M61 498l256 362h179l-256 -362l256 -369h-179z" />
<glyph unicode="&#x203a;" horiz-adv-x="557" d="M61 129l256 369l-256 362h179l256 -362l-256 -369h-179z" />
<glyph unicode="&#x20ac;" horiz-adv-x="1161" d="M43 473v133h78q-2 25 -2 76q0 55 2 82h-78v131h96q47 227 188.5 360.5t350.5 133.5q291 0 434 -302l-186 -83q-84 184 -248 184q-109 0 -187.5 -79t-115.5 -214h391v-131h-412q-4 -53 -4 -82q0 -51 2 -76h414v-133h-391q35 -137 113.5 -217t189.5 -80q86 0 149.5 55.5 t98.5 145.5l188 -82q-143 -319 -436 -320q-209 0 -351.5 135.5t-187.5 362.5h-96z" />
<glyph unicode="&#x2122;" horiz-adv-x="847" d="M35 1313v53h270v-53h-106v-398h-58v398h-106zM379 915v451h88l111 -324l110 324h88v-451h-57v373l-133 -373h-17l-133 373v-373h-57z" />
<glyph unicode="&#xe000;" horiz-adv-x="990" d="M0 990h990v-990h-990v990z" />
<glyph unicode="&#xfb01;" horiz-adv-x="1003" d="M33 811v178h129v90q0 145 72.5 226t195.5 81q90 0 150 -32l-41 -162q-25 18 -64 18q-51 0 -80.5 -34.5t-29.5 -96.5v-90h163v-178h-163v-811h-203v811h-129zM653 1241q0 53 38 90t91.5 37t90 -37t36.5 -90t-36.5 -90t-90 -37t-91.5 38t-38 89zM680 0v989h203v-989h-203z " />
<glyph unicode="&#xfb02;" horiz-adv-x="1003" d="M33 811v178h129v90q0 145 72.5 226t195.5 81q90 0 150 -32l-41 -162q-25 18 -64 18q-51 0 -80.5 -34.5t-29.5 -96.5v-90h163v-178h-163v-811h-203v811h-129zM680 0v1366h203v-1366h-203z" />
<glyph unicode="&#xfb03;" horiz-adv-x="1562" d="M33 811v178h129v90q0 145 73.5 226t204.5 81q127 0 197 -69l-68 -146q-37 39 -92 39q-53 0 -82.5 -34.5t-29.5 -96.5v-90h163v-178h-163v-811h-203v811h-129zM592 811v178h129v90q0 145 72.5 226t195.5 81q90 0 150 -32l-41 -162q-25 18 -64 18q-51 0 -80.5 -34.5 t-29.5 -96.5v-90h163v-178h-163v-811h-203v811h-129zM1210 1241q0 53 38 90t91.5 37t90 -37t36.5 -90t-36.5 -90t-90 -37t-91.5 38t-38 89zM1237 0v989h203v-989h-203z" />
<glyph unicode="&#xfb04;" horiz-adv-x="1562" d="M33 811v178h129v90q0 145 73.5 226t204.5 81q127 0 197 -69l-68 -146q-37 39 -92 39q-53 0 -82.5 -34.5t-29.5 -96.5v-90h163v-178h-163v-811h-203v811h-129zM592 811v178h129v90q0 145 72.5 226t195.5 81q90 0 150 -32l-41 -162q-25 18 -64 18q-51 0 -80.5 -34.5 t-29.5 -96.5v-90h163v-178h-163v-811h-203v811h-129zM1237 0v1366h203v-1366h-203z" />
</font>
</defs>
</svg>
